[Seriály] Na stojáka – cikán o cikánech (CZ)

Jazyk: ?esky

Titulky: ne

Kvalita zvuku: Audio: AAC at 121 Kbps Infos: 2 channels, 44.1 KHz

Kvalita videa: Video: MPEG-4 Visual at 607 Kbps Aspect: 320 x 234 (1.368) at 29.000 fps

Odkaz na CSFD: http://www.csfd.cz/film/221695-na-stojaka/

Rok vydání: neznámý

Délka: 3mn 15s

Obal:

]

screen 2:

[img]" alt="není" title="není" class="bbcode-image" />

Výpis MediaInfo:

General

Complete name: H:Videa You TubeNa stojáka – cikán o cikánech(ipad).mp4

Format: MPEG-4

Format profile: Base Media

Codec ID: isom

File size: 17.1 MiB

Duration: 3mn 15s

Overall bit rate mode: Variable

Overall bit rate: 735 Kbps

Writing application: Lavf54.63.104

Video

ID: 1

Format: MPEG-4 Visual

Format profile: [email protected]

Format settings, BVOP: No

Format settings, QPel: No

Format settings, GMC: No warppoints

Format settings, Matrix: Default (H.263)

Codec ID: 20

Duration: 3mn 15s

Bit rate mode: Variable

Bit rate: 607 Kbps

Maximum bit rate: 1 500 Kbps

Width: 320 pixels

Height: 234 pixels

Display aspect ratio: 4:3

Frame rate mode: Constant

Frame rate: 29.000 fps

Color space: YUV

Chroma subsampling: 4:2:0

Bit depth: 8 bits

Scan type: Progressive

Compression mode: Lossy

Bits/(Pixel*Frame): 0.280

Stream size: 14.1 MiB (83%)

Writing library: Lavc54.92.100

Audio

ID: 2

Format: AAC

Format/Info: Advanced Audio Codec

Format profile: LC

Codec ID: 40

Duration: 3mn 15s

Bit rate mode: Variable

Bit rate: 121 Kbps

Maximum bit rate: 128 Kbps

Channel(s): 2 channels

Channel positions: Front: L R

Sampling rate: 44.1 KHz

Compression mode: Lossy

Stream size: 2.82 MiB (16%)


Download serialy.na.stojaka.cikan.o.cikanech.cz.zip
Direct Link


Download


Download serialy.na.stojaka.cikan.o.cikanech.cz.zip
Mediafire


Download


Download serialy.na.stojaka.cikan.o.cikanech.cz.zip
Fileparadox


Download